Ffmpeg D3d11va

ffmpeg で動画を結合する方法 【ffmpeg】動画・音声を連結する concat の使い方 其の3 : ニコニコ動画研究所 基本的な手順は上記の URL を参照しつつ実施しました。 上記の手順で詰まったところを補足しています。 環境 OS : Windows 10 home ツール?: power shell ffmpeg は以前入れてその時に手順を残してい. Prerequisites A linux server, such as Ubuntu Apache web server installed, running, and reachable via its ip address Latest version of Ffmpeg installed An ip camera that is. , 51 Franklin Street, Fifth Floor, Boston, MA 02110-1301 USA # include < stddef. ffmpeg 합치는 명령어를 예: ffmpeg -f concat -i file. 0 --disable-d3d11va disable Microsoft Direct3D 11 video [email protected] It is mainly useful for testing or benchmarking purposes. It contains safe portable string functions, random number generators, data structures, additional mathematics functions, cryptography and multimedia related functionality (like enumerations for pixel and sample formats). Encode HEVC/H. I downloaded ffmpeg from the link provided above, but once installed on my PC (Windows), when I open the FFMPEG tab and hit the "choose" button Pano2VR can't find the ffmpeg executable, although in the BIN folder if there is an ffmpeg file. Last time I did it was a year ago; I have used Corone's build ever since. iOS ffmpeg 理解 教程一:视频截图(Tutorial 01: Making Screencaps) 首先我们需要了解视频文件的一些基 90后的思维 阅读 2,299 评论 0 赞 3. you'd cd to the ffmpeg source in a terminal (or if using 16. I'm trying to cross-compile FFmpeg 3. Without piping, it works fine. FFmpeg命令行工具基本使用 下载 FFmpeg. using ffmpeg hwaccel from C++ (1) When using FFmpeg the tool, HW-assisted decoding is enabled using through the -hwaccel option, which enables a specific decoder. ffmpeg unknown input format rmvb - posted in General/Windows: First and foremost, Emby is an excellent product. EXT': Metadata: encoder : VirtualDubMod 1. The hwaccel option is only implemented for ffmpeg, not ffplay, IIRC anyway. Hi Carl Eugen, On Tue, 6 Nov 2018 at 14:56, Carl Eugen Hoyos <[hidden email]> wrote: > 2018-11-06 11:32 GMT+01:00, Roman Gorelik <[hidden email]>: > > > Can someone explain please what is the difference between hwaccels > > cuda and cuvid? Which one should be used in which cases? > > Adding to the answer: Using FFmpeg's parser and not Nvidia's can > help with unusual samples. c文件当中。 我们首先看一下这个文件当中最主要的函数dxva2_create_decoder,代码如下:. echo "this is not a bug in ffmpeg, do not report it as such. Optimize video for fast streaming : ffmpeg -i INPUT. 264 video sources are on the second "pin" and I suspect that's. Get video file informations. It doesn't matter whether I use little endian or big endian either. r/ffmpeg: FFmpeg is the leading multimedia framework, able to decode, encode, transcode, mux, demux, stream, filter and play pretty much anything … Press J to jump to the feed. I need to convert RTSP stream to HTTP Video Stream, that Google Chrome browser could play. 04, Ubuntu 16. --disable-d3d11va disable Microsoft Direct3D 11 video. Zeranoe FFmpeg Builds Build: ffmpeg-4. gz /usr/share/doc/ffmpeg-doc/changelog. Every then and now ffmpeg tells me. From f8094dfe0817060ee709b675eb35a5e7bf7d8b3e Mon Sep 17 00:00:00 2001: From 623458656013c1f91bfaea4cba97023d2da1583f Mon. GitHub Gist: instantly share code, notes, and snippets. 88, start: 0. Compiling FFMPEG with DXVA support? If this is your first visit, be sure to check out the FAQ by clicking the link above. autogen streaming). I'm on a Surface Pro 3 running Windows 10. Currently only CUDA decoders are supported. ffmpeg는 오픈소스이면서, 비디오/오디오 관련한 많은 기능을 제공하고 있으며, 성능또한 상당히 좋은 편이다. can't make use of it. Hi, Remove the channel handling at the end of the command. exe with this beta that removes initial preset trial. 264 decoder may only support baseline profile). The libavutil library is a utility library to aid portable multimedia programming. C:\Program Files\ImageMagick-7. org under the "GNU Lesser General Public License 2. However, I did ran into an issue with transcoding rmvb files recently. configuration: --enable-gpl --enable-version3 --enable-cuda --enable-cuvid --enable-d3d11va --enable-dxva2 --enable-libmfx --enable-nvenc --enable-avisynth --enable. We got the tracking to work several times, even though we were having connectivity issues. It includes the following library versions:. I've tried to enable all configure modifiers I found to enable d3d11va. * License along with FFmpeg; if not, write to the Free Software * Foundation, Inc. mkv" -map 0 -c:v hevc_nvenc -rc:v vbr_hq -b:v 1652k -minrate 1156k -maxrate 2147k -bufsize 2M -spatial_aq:v 1 -c:a copy -c:s copy -max_muxing_queue_size 4096 -map -0:d. It's worth noticing that re-encoding might deteriorate visual and/or hearing quality. Just avoid these updates for now; maybe ffmpeg will catch-up later, I don't know. 1 (released 2019/03/19) including LAV Splitter, LAV Video and LAV Audio. This is supported out of the box by all D3D11VA capable FFmpeg encoder, for example with NVENC. ffmpeg -encoders | grep nvenc. A little bash script that does the job for me, for your consideration #!/bin/bash echo 'HTTPPort 8090 HTTPBindAddress 0. 8-1 Complete and free. Active 30 days ago. OpenCV - Originally developed by Intel 's research center, as for me, it is the greatest leap within computer vision and media data analysis. ffm Format mpeg VideoFrameRate 25 #VideoIntraOnly VideoBitRate 4096 VideoBufferSize 4096 VideoSize. Maintainer: [email protected] flv image%d. Nor has this filter been tested with anyone who has photosensitive epilepsy. But FFmpeg cannot decode AV_CODEC_ID_DVD_NAV (0x18805), this is not a bug, the demuxer is expected to return the packets. Currently I am doing this by creating a video from a set of images once the image. avi -vcodec copy -acodec copy -pix_fmt yuv420p myfile. ffm Format mpeg VideoFrameRate 25 #VideoIntraOnly VideoBitRate 4096 VideoBufferSize 4096 VideoSize. From f8094dfe0817060ee709b675eb35a5e7bf7d8b3e Mon Sep 17 00:00:00 2001: From 623458656013c1f91bfaea4cba97023d2da1583f Mon. 2 Version of this port present on the latest quarterly branch. For using ffmpeg/x265 with libx265_main*. >ffmpeg. mp4 I get almost empty file. ffmpeg -i video. If you are new to this tool, here are some handy commands. Everything is well activated as before the update but it doesnt work anymore. mp4 -c copy -ss 00:27:00 -to 00:56:00 D:/video/01. --- libavcodec/d3d11va. 2 from Alien Bob Restricted repository. The params I am using is : -pix_fmt yuv420p -movflags faststart -vsync 1 -vcodec libx265 -r 30 -threads 0 -b:v: 500k -bufsize 500k -maxrate 500k -preset medium Does the job within 2-3 sec for size of <2 MB, take 7-8 sec for ~5 MB, 15-16 for ~ 20 MB. name\Video-downloader-requirements. I have succesfully compiled ffmpeg and I'm able to debug it. Message ID: 20200409175054. This PR adds the the ability to specify GPU device for VideoCapture FFmpeg decoding. 112 Running: CALL "build. mp4 then fails:. Some FFmpeg demuxers might not respect this option. Inline Side-by-side. A new keyframe will be written as the first frame in the output stream. Currently I am doing this by creating a video from a set of images once the image. * License along with FFmpeg; if not, write to the Free Software * Foundation, Inc. txt 라고 입력하여 조회한 내용을 file. This is a ubuntu 16. can't make use of it. This is supported out of the box by all D3D11VA capable FFmpeg encoder, for example with NVENC. 16 "Feynman" 2. The results are also affected by where you place your search (-ss) , as an input or as an output. 2019-11-10 11:41:08. The only problem I have is that I cannot use d3d11va. ts -filter_complex "[i:256]deinterlace_qsv,scale_qsv=720:576[out]" -map [out] -map i:257 -c:0 h264_qsv -preset medium -c:1 copy -f mpegts. patch new file. Artem Galin Fri, 08 May 2020 11:55:30 -0700. FFmpeg has added a realtime bright flash removal filter to libavfilter. 查看ffmpeg当前版本支持的所有解码器3. Prerequisites A linux server, such as Ubuntu Apache web server installed, running, and reachable via its ip address Latest version of Ffmpeg installed An ip camera that is. ffmpeg Realtime audio/video encoder/converter and streaming server 4. Apple disclaims any and all liability for the acts, omissions and conduct of any third parties in connection with or related to your use of the site. To report a valid ticket here, you would have to provide an ffmpeg command line including its complete, uncut console output. It seems to work in browsers though, or at least Edge. Edited by softworkz, 30 August 2019 - 11:19 AM. Here’s how to install it in Ubuntu 14. sh --ffmpeg-git-checkout-version=n4. 0 %: 156 / 156: libavcodec/cbrt_tablegen. Extract mp3 from video. h, so in my user code I can change all the hooks, in particular "frames_init" function pointer to a custom function that add the D3D11_BIND_SHADER_RESOURCE to the BindFlags and then calls the original d3d11va_frames_init. I am developing a piece of C# image-acquisition software in which I am compiling images into a video as I get them. 2、GPU は GeForce GTX 1050 です。. We use cookies for various purposes including analytics. 2 Version of this port present on the latest quarterly branch. mkv -hwaccel_device 0 wäre in diesem Beispiel die erste GPU. 3 2011-09-10 ubuntu android c header video include Ubuntu 在 Windows 7 下使用 Android NDK r5c 编译 FFmpeg 0. 2 with --toolchain=msvc and --. " echo "Instead, install a working POSIX-compatible shell. There is currently no pre-built version of FFmpeg for Windows with VMAF available online and compiling FFmpeg under Windows is a little more complicated than Mac OS and Linux. I notice you arer copying your cuts. It is the latest stable FFmpeg release from the 2. Windows 10 Pro Resolve 16. : "hwaccel. Only users with topic management privileges can see it. DXVA2 D3D11VA. /usr/share/doc-base/ffmpeg-doc /usr/share/doc/ffmpeg-doc/changelog. ts -filter_complex "[i:256]deinterlace_qsv,scale_qsv=720:576[out]" -map [out] -map i:257 -c:0 h264_qsv -preset medium -c:1 copy -f mpegts. GitHub Gist: instantly share code, notes, and snippets. 2009-03-27 - Tested and works. Press question mark to learn the rest of the keyboard shortcuts. ffmpeg doesn't even try to encode. 13 * FFmpeg is distributed in the hope that it will be useful, 14 * but WITHOUT ANY WARRANTY; without even the implied warranty of 15 * MERCHANTABILITY or FITNESS FOR A PARTICULAR PURPOSE. However, I did ran into an issue with transcoding rmvb files recently. A new keyframe will be written as the first frame in the output stream. you'd cd to the ffmpeg source in a terminal (or if using 16. The libavutil library is a utility library to aid portable multimedia programming. 640 Info FfmpegManager: ProcessRun ffmpeg -hide_banner -decoders Execute: F:\EmbyCore\system\ffmpeg. c and hwcontext_internal. Video Production Stack Exchange is a question and answer site for engineers, producers, editors, and enthusiasts spanning the fields of video, and media creation. /cross_compile_ffmpeg. Well, ffmpeg had support for cuvid for forever, which is the exact same API, just under its old name. , 51 Franklin Street, Fifth Floor, Boston, MA 02110-1301 USA */ # ifndef AVUTIL_HWCONTEXT_D3D11VA_H # define AVUTIL_HWCONTEXT_D3D11VA_H /* * * @file * An API-specific header for AV_HWDEVICE_TYPE_D3D11VA. ffmpeg로 하드웨어 가속을 사용하여 파일을 어떻게 디코딩합니까? ffmpeg를 사용하는 작동 비디오 플레이어를 작성했습니다. c is significantly based on work by Steve Lhomme : > I'm trying to cross-compile FFmpeg 3. , 51 Franklin Street, Fifth Floor, Boston, MA 02110-1301 USA */ #ifndef AVCODEC_D3D11VA_H #define AVCODEC_D3D11VA_H /** * @file * @ingroup lavc_codec_hwaccel_d3d11va * Public libavcodec D3D11VA. ffmpeg -encoders | grep nvenc. Resize a video for YouTube, using FFmpeg; Merging audio and video, using FFmpeg. Extract mp3 from video. Only current FFmpeg git head is supported here (and this is even more true for Windows: Releases are only relevant for Linux distributions). , 51 Franklin Street, Fifth Floor, Boston, MA 02110-1301 USA # ifndef AVCODEC_D3D11VA_H. I think you could be right, when you press "convert" button, preset is tried automatically, I had to set a timeout because for some reasons ffmpeg hangs with some convertions because some files need to be further processed before they start showing some progress, so program gets stuck. 2 Version of this port present on the latest quarterly branch. Here is my log from ffmpeg-build:. The ProRes handler now has a packet processing hook to add a workaround for a FFmpeg bug with ProRes content in Matroska/MKV. A new keyframe will be written as the first frame in the output stream. The hwaccel option is only implemented for ffmpeg, not ffplay, IIRC anyway. Stream #0:0[0x1e0]: Video: h264 (Baseline), yuv420p(progressive), 1920x1080, 25 fps, 25 tbr, 90k tbn, 50 tbc. I use avconv for video conversion: avconv -i video. 2-Q16 Now I can simply type ffmpeg in the command window and use the -vf nlmeans filter works. I am newbie in such question, so I Googled this https://trac. Hey Channel. Since I have to concatenate so many files i cannot use the "concat protocol" because it will require too many characters for the cmd prompt (using the concat protocol I'm actually able to concatenate. The libavutil library is a utility library to aid portable multimedia programming. * * The default pool implementation will be fixed-size if. avcodec: Using D3D11VA (Intel(R) HD Graphics 530, vendor 32902(Intel), device 6427, revision 6) for hardware decoding 155 main error: Timestamp conversion failed (delay 300000, buffering 100000, bound 9000000). 1 of the License, or (at your option) any later version. Mimick the existing structure and add the extra fields from the Range Extension in a wrapping structure. Resize a video for YouTube, using FFmpeg; Merging audio and video, using FFmpeg. It seems to work in browsers though, or at least Edge. I have checked for support using "av_hwaccel_next" and found mpeg2_dxva. I tried using blend=all_expr=0. Component changed from ffmpeg to avformat; Description modified () ; Keywords aac regression added ; Priority changed from normal to important; Reproduced by developer set ; Status changed from new to open; Summary changed from Converting m4a file to mp3 not wokring with ffmpeg 4. * License along with FFmpeg; if not, write to the Free Software * Foundation, Inc. Only current FFmpeg git head is supported here (and this is even more true for Windows: Releases are only relevant for Linux distributions). Press question mark to learn the rest of the keyboard shortcuts. [PATCH 3/6] package/ffmpeg: cosmetic change for the mips fpu option. @SGaist Thanks, now it works. 25*PTS" output. exe string "x265_api_get_" just read the number after -- now it is "x265_api_get_170", so exactly the same function should be in libx265_main12. lavc: Add hardware config metadata for decoders supporting hardware output This includes a pointer to the associated hwaccel for decoders using hwaccels - these will be used later to implement the hwaccel setup without needing a global list. The new decoder setup code in dxva2. mkv -filter:v "setpts=2. * License along with FFmpeg; if not, write to the Free Software * Foundation, Inc. If ffmpeg was compiled with support for libnpp, it can be used to insert a GPU based scaler into the chain: ffmpeg -hwaccel_device 0 -hwaccel cuda -i input -vf scale_npp=-1:720 -c:v h264_nvenc -preset slow output. ffm Format mpeg VideoFrameRate 25 #VideoIntraOnly VideoBitRate 4096 VideoBufferSize 4096 VideoSize. I notice you arer copying your cuts. That's the reason why we're having both in Emby. GitHub Gist: instantly share code, notes, and snippets. This is a ubuntu 16. NVDEC offers decoders for H. ffmpeg -i video. 4,代码在ffmpeg-3. ffm FileMaxSize 200M Feed camera. 3 of this was given away it is NOT compatible with windows 2000,2003,XP or Vista or. Hi all, Feels a bit weird to be addressing everyone in the email list but if this is how it's done I will get used to it :) My issue with the latest build (as well as the. mp4 then fails: file:myfile. ffmpeg -i input. exe -i __34. Message ID: 20200409175054. The libavutil library is a utility library to aid portable multimedia programming. 88, start: 0. Component changed from ffmpeg to avformat; Description modified Keywords aac regression added Priority changed from normal to important; Reproduced by developer set Status changed from new to open; Summary changed from Converting m4a file to mp3 not wokring with ffmpeg 4. __group__,ticket,summary,component,version,type,severity,owner,status,created,_changetime,_description,_reporter Audio: ALSA / PulseAudio,5098,PulseAudio: set all. * * FFmpeg is free software; you can redistribute it and/or * modify it under the terms of the GNU Lesser General Public * License as published by the Free Software Foundation; either * version 2. [FFmpeg-devel,v3,3/4] libavcodec/qsv: enabling d3d11va support, added mfxhdlpair [FFmpeg-devel,v3,1/4] fftools/qsv: enabling d3d11va/dxva2 device selection 2 - -. 21 and getting loads of errors from ffmpeg in the log 2019-11-10 11:41:08. 100 Hardware acceleration methods: cuda dxva2 qsv d3d11va qsv cuvid Build Command (Built using ffmpeg-windows-build-helpers ):. Only current FFmpeg git head is supported here (and this is even more true for Windows: Releases are only relevant for Linux distributions). C:\Program Files\ImageMagick-7. 0 %: 18 / 18: 95. h | 1 + libavcodec/dxva2. I can take the same source file and save the audio out as ". 0007-contrib-ffmpeg-fix-a-deadlock-in Find file Blame History Permalink. 2 Version of this port present on the latest quarterly branch. FFmpeg has added a realtime bright flash removal filter to libavfilter. ffmpeg -i input. 1 from Multimedia Libs repository. mp4 -s 352x288 -b:v 384k -flags +loop+mv4 -cmp 256 -partitions +parti4x4+parti8x8+partp4x4+partp8x8 -subq 6 -trellis 0 -refs 5 -bf 0 -coder 0 -me_range 16 -g 250 -keyint_min 25 -sc_threshold 40 -i_qfactor 0. ffmpeg识别为这几种格式的文件都可以尝试使用dxva2做硬件加速。 但这并不代表是这几种格式的文件就一定支持dxva2硬件加速,因为我就遇到了一个AV_CODEC_ID_HEVC文件在初始化配置dxva2的过程中会失败,PotPlayer在播放这个文件时也不能用dxva2硬件加速。. Encode HEVC/H. Compiling FFMPEG with DXVA support? If this is your first visit, be sure to check out the FAQ by clicking the link above. * FFmpeg is free software; you can redistribute it and/or * modify it under the terms of the GNU Lesser General Public * License as published by the Free Software Foundation; either * version 2. I have succesfully compiled ffmpeg and I'm able to debug it. avi if executing ffmpeg -i myfile. It includes the following library versions:. One of the reasons I looked into this is that QTGMC (my AVISynth deinterlacing plugin of choice) is ridiculously slow and prone to crashing when processing HD footage. (本文所使用的浏览器是Google Chrome。 ) 在之前的一片专栏中我说过在控制台的Elements中看到视频地址是 blob:xxxxxxxxxx之类的,可以使用ffmpeg来下载,但并不是每个地方都能这么用,比如B站的就不行。. 5*(A+B) and the results looked much better, but now it encoded at an annoying 7 fps (and this is mostly filter overhead; I was encoding to ffv1. Context Check Description andriy/ffmpeg-patchwork. AutoGen-masterC# ffmpeg. 23468-3-artem. When using FFmpeg -s. To encode HEVC/H. 2019-02-04 22:00 GMT+01:00, Felix Muster <[hidden email]>: > I created the sample file: ffmpeg -ss 01:26:00 -i input. 8 release branch, which was cut from master on 2015-09-05. OK, I Understand. Please keep up the good work. Use ffmpeg to connect to an ip cctv camera and create video files on the fly that can be viewed in an mpeg-dash compatible browser using dash. I downloaded ffmpeg from the link provided above, but once installed on my PC (Windows), when I open the FFMPEG tab and hit the "choose" button Pano2VR can't find the ffmpeg executable, although in the BIN folder if there is an ffmpeg file. php/retroarch-1-8-5-released/ OP: RetroArch 1. 1 of the License, or (at your option) any later version. Windows 10 Pro Resolve 16. Unfortunately, ffmpeg could decode such a stream only by using software decoding at that time. The libavutil library is a utility library to aid portable multimedia programming. Video Production Stack Exchange is a question and answer site for engineers, producers, editors, and enthusiasts spanning the fields of video, and media creation. A little bash script that does the job for me, for your consideration #!/bin/bash echo 'HTTPPort 8090 HTTPBindAddress 0. 04 running on armhf board. Over 30 frames per second with top quality makes around 30 millions pixel per second. There is currently no pre-built version of FFmpeg for Windows with VMAF available online and compiling FFmpeg under Windows is a little more complicated than Mac OS and Linux. What you are doing is telling FFMPEG to decode the input file using hardware acceleration. Click to see what's new in FFmpeg 3. ffmpeg | 2020-05-02 09:26 ffmpeg. * FFmpeg is free software; you can redistribute it and/or * modify it under the terms of the GNU Lesser General Public * License as published by the Free Software Foundation; either * version 2. dts > The problem can easily be reproduced and occurs exactly at the > chapter mark. 高清视频相关知识和、KMPlayer 硬解码(DXVA)设置、Z520+US15W+GMA500硬解码测试. mpg files captured with AverMedia capture devices. Without piping, it works fine. mkv -t 00:02:00 -map > 0:1 -c copy output. * * FFmpeg is distributed in the hope that it will be useful,. m4s的了,可能B站觉得这种更适合B站的需求吧。. Back to original post. 8-1 Complete and free Internet live audio and video broadcasting solution (mingw-w64) mingw64/mingw-w64-x86_64-ffmpeg 2. 265 by QSV hw-encoder you need instruct ffmpeg to use hw-accelerator 'qsv' by '-hwaccel qsv', apply HEVC hw-encoder by 'c:v hevc_qsv', in addition you need load hevc plugin (see the example command line). It also includes a digital VCR. Although I haven't tested this myself, you can probably still build ffmpeg if you disable DXVA2 and D3D3VA : --disable-d3d11va --disable-dxva2 or --disable-hwaccels (will also disable Intel's QS and NVidia's NVenc/dec). r/ffmpeg: FFmpeg is the leading multimedia framework, able to decode, encode, transcode, mux, demux, stream, filter and play pretty much anything … Press J to jump to the feed. DLNA-基于uShare的DMS移植和编译. Get video file informations. Optimize video for fast streaming : ffmpeg -i INPUT. can't make use of it. 在 Ubuntu 下使用 Android NDK r4b 编译 FFmpeg 0. 13 * FFmpeg is distributed in the hope that it will be useful, 14 * but WITHOUT ANY WARRANTY; without even the implied warranty of 15 * MERCHANTABILITY or FITNESS FOR A PARTICULAR PURPOSE. Maintainer: [email protected] exe with this beta that removes initial preset trial. The listing is defined in this file. Apple disclaims any and all liability for the acts, omissions and conduct of any third parties in connection with or related to your use of the site. 使用ffmpeg d3d11va的时候出现帧的时序上混乱。 通过ffmpeg 源码可知,ffmpeg 用d3d11va 时 出来的frame 中的data[0]存放的是decode texture数组(默认大小为20),data[1] 存放下标(可以发现,貌似下标总是一个随机的值,没调试进去,所以没有发现在哪里修改下标,不过通过下表访问的数据是没错的)。. My Driver for Quadro is a last version. This package contains development files for compat-ffmpeg28. You are not using an encoder for decoding. 2_14,1 multimedia =140 4. mp4 -vf "drawtext=fontfile='E\:\\ffmpegTool\\bin\\arialbd Stack Exchange Network Stack Exchange network consists of 176 Q&A communities including Stack Overflow , the largest, most trusted online community for developers to learn, share their knowledge, and build their careers. I'm trying to use qsv from ffmpeg with an example i found if ffmpeg src, but it isnt work for me, could you suggest me another one example or say what i do wrong? When i used this example i had an output:. Click to see what's new in FFmpeg 3. > > https://ufile. Hey Channel. ffm Format mpeg VideoFrameRate 25 #VideoIntraOnly VideoBitRate 4096 VideoBufferSize 4096 VideoSize. FFmpeg本身可不可以将其发布出来呢? 5 年多之前 回复 lkyllj098 回复xdwyyan: 建议你都通过flash插件进行播放,因为在PC端和移动端都是支持的,目前为止我还没发现哪个浏览器不支持flash的,手机端也一样. all *_cuvid ffmpeg codecs. It includes the following library versions:. We got the tracking to work several times, even though we were having connectivity issues. 264 & HEVC Encoders For NVIDIA's NVENC Following FFmpeg in supporting NVENC for NVIDIA's GPU-based video encoding on Linux systems, the forked Libav project has now written up their own NVENC support for H. A little bash script that does the job for me, for your consideration #!/bin/bash echo 'HTTPPort 8090 HTTPBindAddress 0. 2 Version of this port present on the latest quarterly branch. Video Production Stack Exchange is a question and answer site for engineers, producers, editors, and enthusiasts spanning the fields of video, and media creation. 最近一直在忙ffmpeg利用dxva2硬件解码后利用opengl glsl绘图显示,目前存在以下问题,希望能有人能帮忙解答给出思路。 问题: 硬解码后数据拷贝回内存耗时过长导致播放很慢,原来9分钟的4K视频,需要耗时12分钟才能播完。 目前的实现方式:. : … Input #0, EXT, from 'INPUT_FILE. You can speed up or slow down audio with the atempo audio filter. 1 of the License, or (at your option) any later version. Page 1 of 2 - HEVC UHD titles not recognizing HDR - posted in General/Windows: I recently bought a one month license for Emby to kick the tires on it as I am having issues with Plex on an Nvidia Shield when trying to play back UHD HDR content consistently. Viewed 14k times 2. Maintainer: [email protected] I have this exact same code working prior to the reinstall, however after I cant get it to work. * * FFmpeg is free software; you can redistribute it and/or * modify it under the terms of the GNU Lesser General Public * License as published by the Free Software Foundation; either * version 2. Windows search for "ffmpeg" open file location and opened the following folder. org Port Added: 2002-11-28 00:14:07 Last Update: 2020-04-22 18:24:26 SVN Revision: 532490 Also Listed In: audio net License: GPLv3+ LGPL3+ Description: FFmpeg is a complete, cross-platform. avi if executing ffmpeg -i myfile. So, I had Audacity setup to use ffmpeg and it was unable to load the G. As far as your specific question, - the. Video Production Stack Exchange is a question and answer site for engineers, producers, editors, and enthusiasts spanning the fields of video, and media creation. 0 released, includes AMF hardware encoding for Radeon News (GPU) Just a heads up for video/HTPC users: The group that controls ffmpeg a few days ago finalized v4. 2-Q16 Now I can simply type ffmpeg in the command window and use the -vf nlmeans filter works. I've even disabled DXVA2 and D3D11VA in ffmpeg for this build, as it's pointless anyway. Amongst lots of other changes, it includes all changes from ffmpeg-mt, libav master of 2015-08-28, libav 11 as of 2015-08-28. Component changed from ffmpeg to avformat; Description modified () ; Keywords aac regression added ; Priority changed from normal to important; Reproduced by developer set ; Status changed from new to open; Summary changed from Converting m4a file to mp3 not wokring with ffmpeg 4. * * You should have received a copy of the GNU Lesser General Public * License along with FFmpeg; if not, write to the Free Software * Foundation, Inc. The libavutil library is a utility library to aid portable multimedia programming. GitHub Gist: instantly share code, notes, and snippets. wmv -c:v libx264 -c:a libmp3lame -b:v 1800K video. Hi, I found a solution to this problem: Use initialization of D3D11 in the command line. org mailing list or IRC #ffmpeg on irc. Optimize video for fast streaming : ffmpeg -i INPUT. 8-1 Complete and free Internet live audio and video broadcasting solution (mingw-w64) mingw64/mingw-w64-x86_64-ffmpeg 2. It is the latest stable FFmpeg release from the 2. js and an html5 video element. Amongst lots of other changes, it includes all changes from ffmpeg-mt, libav master of 2015-08-28, libav 11 as of 2015-08-28. Windows 10 Pro Resolve 16. One of the reasons I looked into this is that QTGMC (my AVISynth deinterlacing plugin of choice) is ridiculously slow and prone to crashing when processing HD footage. My Driver for Quadro is a last version. 6-x86_64-1alien. Click to see what's new in FFmpeg 3. I didn't get any success so far. Download ffmpeg-4-libavcodec-devel-4. org Port Added: 2002-11-28 00:14:07 Last Update: 2020-05-04 20:36:58 SVN Revision: 533973 Also Listed In: audio net License: GPLv3+ LGPL3+ Description:. h264_d3d11va_hwaccel_deps = "d3d11va" h264_d3d11va_hwaccel. We got the tracking to work several times, even though we were having connectivity issues. Split video to images. 在 Ubuntu 下使用 Android NDK r4b 编译 FFmpeg 0. Here is the streaming o/p:. FFmpeg本身可不可以将其发布出来呢? 5 年多之前 回复 lkyllj098 回复xdwyyan: 建议你都通过flash插件进行播放,因为在PC端和移动端都是支持的,目前为止我还没发现哪个浏览器不支持flash的,手机端也一样. This is in fact just a second implementation using the ffmpeg native format parsers instead of relying on the ones nvidia supplies, which are often not 100% compatible and lack features, like for example closed caption support. 0 でした。 最新の確認環境. 3 of this was given away it is NOT compatible with windows 2000,2003,XP or Vista or. 查看帮助文档 ffmpeg是一个开源的音视频转码工具 本文是自己学习ffmpeg使用方式的一个笔记 将ffmpeg命令行工具加入环境变量之后,输入ffmpeg -h打印帮. The difference between mpegts and mpegtsraw makes some sense: mpegtsraw would have ffmpeg shouldering the cpu burden rather than VLC and it would make sense that ffmpeg would be the better workhorse. I've left the nVidia CUVID acceleration alone, so if you have an nVidia card, the hardware accelerated decoding of input video might still work. mp4 This command fades in and out the first and last 30 video frames and 44100 audio samples, on a 1800 frames-long and 2646000 samples-long video (which, if your framerate is 30 fps and samplerate. Component changed from ffmpeg to avformat; Description modified () ; Keywords aac regression added ; Priority changed from normal to important; Reproduced by developer set ; Status changed from new to open; Summary changed from Converting m4a file to mp3 not wokring with ffmpeg 4. Note that this filter is not FDA approved, nor are we medical professionals. I am attempting to concatenate. ts -filter_complex "[i:256]deinterlace_qsv,scale_qsv=720:576[out]" -map [out] -map i:257 -c:0 h264_qsv -preset medium -c:1 copy -f mpegts. 25*PTS" output. I use avconv for video conversion: avconv -i video. 21 and getting loads of errors from ffmpeg in the log 2019-11-10 11:41:08. ; FFmpeg Beginner's handbook Chinese Version by Steven Liu, describes FFmpeg common use method in Chinese, from command line to API usage. autogen 拉流(fC# fmpeg. GitHub Gist: instantly share code, notes, and snippets. , 51 Franklin Street, Fifth Floor, Boston, MA 02110-1301 USA # include < stddef. Good catch. /cross_compile_ffmpeg. mkv -filter:v "setpts=2. Encode HEVC/H. Here's how to install it in Ubuntu 14. Hendrik Leppkes Sat, 09 May 2020 00:16:18 -0700. For better results I've created new files. 8-1 Complete and free Internet live audio and video broadcasting solution (mingw-w64) mingw64/mingw-w64-x86_64-ffmpeg 2. 0 of their utility, which includes AMD's AMF (formerly known as VCE) encoding engine for H264 and HEVC/H265. * This file is part of FFmpeg. Navigate: homepage/bin [Windows Bin Builds]Builds are realeased under the gplv3 This is not by choice, this is the only way to get some tools on it. org Port Added: 2002-11-28 00:14:07 Last Update: 2020-04-22 18:24:26 SVN Revision: 532490 Also Listed In: audio net License: GPLv3+ LGPL3+ Description:. Video analysis. Since we don't know what the user wants to do with the formats. ffmpeg: Use codec hardware config to configure hwaccels Removes specific support for all hwaccels supported by the generic code (DXVA2, D3D11VA, NVDEC, VAAPI and VDPAU). [Attachment 42604 - Click to enlarge] I've tried to use both FFmpeg 32-bits & 64-bits, and also the solution from this link, but it's still not working. Here's an example of the code I'm using. 2 with --toolchain=msvc and --enable-hwaccel=h264_d3d11va. > > Review of attachment 8687744: > ----- > > r=gerv. mkv The -hwaccel_device option can be used to specify the GPU to be used by the hwaccel in ffmpeg. 2019-11-10 11:41:08. With Nvidia and Intel, VP9 works as expected in mpv etc. You can speed up or slow down audio with the atempo audio filter. avi -vcodec copy -acodec copy -pix_fmt yuv420p myfile. 4 --disable-nonfree=n --git-get-latest=y --prefer-stable=y --high-bitdepth=y. Example (based on the initial command described above): ffmpeg. The libavutil library is a utility library to aid portable multimedia programming. 04, Ubuntu 16. 2019-02-04 22:00 GMT+01:00, Felix Muster <[hidden email]>: > I created the sample file: ffmpeg -ss 01:26:00 -i input. 8-1 Complete and free. 访问官网下载对应系统的版本即可,这里我下载的是windows版本的。 下载后无需安装,仅需要将解压后得的bin目录加到windows的path环境变量中即可。. ; FFmpeg Beginner's handbook Chinese Version by Steven Liu, describes FFmpeg common use method in Chinese, from command line to API usage. Use ffmpeg to connect to an ip cctv camera and create video files on the fly that can be viewed in an mpeg-dash compatible browser using dash. 112 Running: CALL "build. Video analysis. parent 9bd326ac. dll missing but it pop an "access denied. If I convert it to FLAC level 0 it works fine. 1 폴더 이동 했는데 드라이브 안 바뀌었으면 2 드라이브 이동 3 dir /b 하여 파일을 조회해보고 4 dir /b > file. 1 from Multimedia Libs repository. ffm FileMaxSize 200M Feed camera. AVCONV / FFMPEG hardware acceleration for video conversion. ffmpeg unknown input format rmvb - posted in General/Windows: First and foremost, Emby is an excellent product. wav" (s16be) and the video out as a separate track as well, and I can mux those into a valid working M2TS via megui. Viewed 14k times 2. all *_cuvid ffmpeg codecs. 16 was released on 2020-04-28. 現今,許多影音媒體網站皆能看到 M3U8 檔案, 以及許多副檔名為. 644 Debug FfmpegManager: ProcessRun ffmpeg -hide_banner -decoders Started. Download QMPlay2-20. 0 %: 18 / 18: 95. exe 32 bit Win32 build download, FFmpeg. ffmpeg Realtime audio/video encoder/converter and streaming server 4. 25*PTS" output. FFmpeg Multimedia Framework Installation Guide on Linux - Part 1. sh --ffmpeg-git-checkout-version=n4. php/retroarch-1-8-5-released/ OP: RetroArch 1. * * FFmpeg is distributed in the hope that it will be useful,. ffmpeg -i video. 公式ページはまだ更新されてませんが、 FFmpegのfacebookで発表されました。 (編集している間に、公式ページも更新されました) 注目は内部AACエンコーダでしょうかね~。 クロマキーフィルターも気になりますね~。(クロマキ. This is a ubuntu 16. * * The default pool implementation will be fixed-size if. Hey Channel. 100 Hardware acceleration methods: cuda dxva2 qsv d3d11va qsv cuvid h264_nvenc support appears to be missing in the latest ffmpeg build, and the latest Shotcut build, which depends on ffmpeg. wav" (s16be) and the video out as a separate track as well, and I can mux those into a valid working M2TS via megui. Component changed from ffmpeg to avformat; Description modified () ; Keywords aac regression added ; Priority changed from normal to important; Reproduced by developer set ; Status changed from new to open; Summary changed from Converting m4a file to mp3 not wokring with ffmpeg 4. mkv\ -vf scale_npp=-1:720 -c:v h264_nvenc -preset slow output. On Windows it is the primary way to use more advanced functions beyond those accessible via DXVA2/D3D11VA, particularly encode. In general, I think HandBrake is supposed to ignore all data streams (not just. 0 でした。 最新の確認環境. mkv It may be better to use: $ ffmpeg -i input -map 0:1 -c copy -f rawvideo out. 13 * FFmpeg is distributed in the hope that it will be useful, 14 * but WITHOUT ANY WARRANTY; without even the implied warranty of 15 * MERCHANTABILITY or FITNESS FOR A PARTICULAR PURPOSE. The ffmpeg developers and their libav antipodes are engaged in a healthy battle. hello first time poster here i was looking to utilize the rendering feature that uses ffmpeg and krita Krita FFMPEG Rendering Issue enable-d3d11va --enable. Press question mark to learn the rest of the keyboard shortcuts. We use cookies for various purposes including analytics. I am developing a multimedia player using ffmpeg. 3 %: 248 / 374: 43. 8-1 Complete and free Internet live audio and video broadcasting solution (mingw-w64) mingw64/mingw-w64-x86_64-ffmpeg 2. Amongst lots of other changes, it includes all changes from ffmpeg-mt, libav master of 2015-08-28, libav 11 as of 2015-08-28. exe 32 bit help:. Optimize video for fast streaming : ffmpeg -i INPUT. I can't test anymore if that has changed, but if it hasn't changed, it would be nice if this could get some attention. Just avoid these updates for now; maybe ffmpeg will catch-up later, I don't know. I have to concatenate hundreds of *. 264 using Direct3D 11 Video APIs. ffmpeg -i input. It also includes a digital VCR. 16 "Feynman" 2. It contains safe portable string functions, random number generators, data structures, additional mathematics functions, cryptography and multimedia related functionality (like enumerations for pixel and sample formats). file:myfile. I downloaded ffmpeg from the link provided above, but once installed on my PC (Windows), when I open the FFMPEG tab and hit the "choose" button Pano2VR can't find the ffmpeg executable, although in the BIN folder if there is an ffmpeg file. sp Note that with external tracks (added with \fB\-\-sub\-files\fP and similar options), there will be streams with duplicate IDs. rpm for Tumbleweed from Multimedia Libs repository. For example, to add a silent audio stream to a video: ffmpeg -i input. The anullsrc audio source filter can create silent audio. 0 to Converting aac fails; Version changed from unspecified to git-master. exe -hide_banner -decoders 2019-11-10 11:41:08. mp4 My CPU (Intel Core i7-4770K) processes 1. mp4 I get almost empty file. Amongst lots of other changes, it includes all changes from ffmpeg-mt, libav master of 2015-08-28, libav 11 as of 2015-08-28. Version to build: 1. * * FFmpeg is distributed in the hope that it will be useful,. Component changed from ffmpeg to avformat; Description modified () ; Keywords aac regression added ; Priority changed from normal to important; Reproduced by developer set ; Status changed from new to open; Summary changed from Converting m4a file to mp3 not wokring with ffmpeg 4. The FFmpeg multimedia library 3. 04 running on armhf board. I want to install/rollback to the particular. org Port Added: 2002-11-28 00:14:07 Last Update: 2020-04-20 09:38:51 SVN Revision: 532187 Also Listed In: audio net License: GPLv3+ LGPL3+ Description: FFmpeg is a complete, cross-platform. mpg files captured with AverMedia capture devices. ffmpeg Realtime audio/video encoder/converter and streaming server 4. it can accept any type of input codec, doesn't have to be rawvideo for instance). I have this exact same code working prior to the reinstall, however after I cant get it to work. avi -vcodec copy -acodec copy -pix_fmt yuv420p myfile. 2014-04-13. ffmpeg -i video. c and hwcontext_internal. Changes 7; Hide whitespace changes. mp4 In such case ffmpeg re-encodes elementary streams within input. exe -f rmvb -codec:0 aac -i file:somefile. It only takes a minute to sign up. The hwaccel option is only implemented for ffmpeg, not ffplay, IIRC anyway. I am attempting to concatenate. ; FFmpeg Beginner's handbook Chinese Version by Steven Liu, describes FFmpeg common use method in Chinese, from command line to API usage. At least it is that way with Navi, I don't have access to a Raven Ridge system. Giveaway of the day If this is the same version of FFMPEG as the last time 4. 0 %: 19 / 20: libavcodec/cbs. mp4 -vf "drawtext=fontfile='E\:\\ffmpegTool\\bin\\arialbd Stack Exchange Network Stack Exchange network consists of 176 Q&A communities including Stack Overflow , the largest, most trusted online community for developers to learn, share their knowledge, and build their careers. 查询编译好的ffmpeg版本有哪些大概支持4. The null muxer uses a wrapped frame so there is no muxing overhead (i. mp4 -c copy -movflags +faststart STREAMABLE_OUTPUT. If you use ffmpeg with x265 inside and you find in ffmpeg. wav" (s16be) and the video out as a separate track as well, and I can mux those into a valid working M2TS via megui. 2 since > that was just released) and I can't seem to enable D3D11VA support. D3D11VA does not have this restriction (= works on headless machines) but it can be a little bit slower. git / blob 326 --disable-d3d11va disable Microsoft Direct3D 11 video 523 [email protected] I have two videos, the main video is 5 seconds long and created from a still images, dimensions are 720x480, the second video is a 1 second long transition video, the original dimensions were 1920x. If you are new to this tool, here are some handy commands. Stream #0:0[0x1e0]: Video: h264 (Baseline), yuv420p(progressive), 1920x1080, 25 fps, 25 tbr, 90k tbn, 50 tbc. In short, what we need is to fix the live stream so H264_QSV decoder can handle it (that's solved using the "-vcodec copy -acodec copy" or "-c copy" and a pipe to another FFMPEG instance), and to find a context where FFMPEG can render a DirectX QSV Device and use it instead of Windows Service Context. c is significantly based on work by Steve Lhomme : > I'm trying to cross-compile FFmpeg 3. This is supported out of the box by all D3D11VA capable FFmpeg encoder, for example with NVENC. " echo "Instead, install a working POSIX-compatible shell. I can take the same source file and save the audio out as ". 100 Hardware acceleration methods: cuda dxva2 qsv d3d11va qsv cuvid Build Command (Built using ffmpeg-windows-build-helpers ):. Facebook Live API ( RTMPS ). There is currently no pre-built version of FFmpeg for Windows with VMAF available online and compiling FFmpeg under Windows is a little more complicated than Mac OS and Linux. avi -vcodec copy -acodec copy -pix_fmt yuv420p myfile. 8-1 Complete and free Internet live audio and video broadcasting solution (mingw-w64) So you can go find the PKGBUILD of this, and see what is needed to build this. Apple disclaims any and all liability for the acts, omissions and conduct of any third parties in connection with or related to your use of the site. As far as your specific question, - the. * FFmpeg is free software; you can redistribute it and/or * modify it under the terms of the GNU Lesser General Public * License as published by the Free Software Foundation; either * version 2. 高清视频相关知识和、KMPlayer 硬解码(DXVA)设置、Z520+US15W+GMA500硬解码测试. However, DXVA2 is detected and compiles without any problems. It contains safe portable string functions, random number generators, data structures, additional mathematics functions, cryptography and multimedia related functionality (like enumerations for pixel and sample formats). I've left the nVidia CUVID acceleration alone, so if you have an nVidia card, the hardware accelerated decoding of input video might still work. enum AVHWDeviceType, each element of which corresponds to some type of hardware acceleration. The process kind of works best in a version of the ffmpeg. flv格式,最近发现换成了. I'm currently trying to develop a personal project where I will light up LEDs according to what's happening on the screen of my computer. I think you could be right, when you press "convert" button, preset is tried automatically, I had to set a timeout because for some reasons ffmpeg hangs with some convertions because some files need to be further processed before they start showing some progress, so program gets stuck. it can accept any type of input codec, doesn't have to be rawvideo for instance). 2899 d3d11va_deps="dxva_h ID3D11VideoDecoder ID3D11VideoContext" 2900 dxva2_deps="dxva2api_h DXVA2_ConfigPictureDecode ole32 user32" 2901 ffnvcodec_deps_any="libdl LoadLibrary". Well, ffmpeg had support for cuvid for forever, which is the exact same API, just under its old name. exe -f rmvb -codec:0 aac -i file:somefile. Amongst lots of other changes, it includes all changes from ffmpeg-mt, libav master of 2015-08-28, libav 11 as of 2015-08-28. I want to install/rollback to the particular. 000000, bitrate: 1029 kb/s Stream #0:0: Video: mpeg4 (Advanced Simple Profile) (XVID. 10 and second using HandBrake 1. The null video filter will pass the video source unchanged to the output. The transcoding log all end with a ffmpeg unknown input format rmvb: C:\\Roaming\Emby-Server\ffmpeg\20170308\ffmpeg. The libavutil library is a utility library to aid portable multimedia programming. Browse Files Download Email Patches; Plain Diff; lavc: Delete all fake hwaccels They are now unused. ffmpeg Realtime audio/video encoder/converter and streaming server 4. exe -i __34. ffmpeg | 2020-05-02 09:26 ffmpeg. (本文所使用的浏览器是Google Chrome。 ) 在之前的一片专栏中我说过在控制台的Elements中看到视频地址是 blob:xxxxxxxxxx之类的,可以使用ffmpeg来下载,但并不是每个地方都能这么用,比如B站的就不行。. Download ffmpeg-3. It includes the following library versions:. On Linux it has a very restricted feature set and is hard to use, but may be helpful for some use-cases desiring maximum throughput. mkv\ -vf scale_npp=-1:720 -c:v h264_nvenc -preset slow output. all *_cuvid ffmpeg codecs. org mailing list or IRC #ffmpeg on irc. , 51 Franklin Street, Fifth Floor, Boston, MA 02110-1301 USA # ifndef AVCODEC_D3D11VA_H. rpm for Fedora 31 from RPM Fusion Free repository. Apple disclaims any and all liability for the acts, omissions and conduct of any third parties in connection with or related to your use of the site. To double the speed of audio:. ffmpeg : command line 도구 ( 동영상 크기및 코덱. Unfortunately, ffmpeg could decode such a stream only by using software decoding at that time. support for decoding through D3D11VA in ffmpeg limiter video filter libvmaf video filter Dolby E decoder and SMPTE 337M demuxer unpremultiply video filter tlut2 video filter. exe mpv | 2020-05-02 09:27 mpv. To report a valid ticket here, you would have to provide an ffmpeg command line including its complete, uncut console output. I implemented DXVA for the ffmpeg CLI and I certainly only ever tested with ffmpeg. Apple disclaims any and all liability for the acts, omissions and conduct of any third parties in connection with or related to your use of the site. Also don't apply the same patches twices. まだ全部終わっていませんが [FFmpeg] ライブラリ全部入りの結果を記載します。 なお、encoders, decoders は codecsに含まれるので省略。 configure -h Usage: configure. In general, I think HandBrake is supposed to ignore all data streams (not just dvdnav packets). 25*PTS" output. It also includes a digital VCR. Hi, I found a solution to this problem: Use initialization of D3D11 in the command line. Using any of the following switches will allow FFmpeg to link to the. 3 version of ffmpeg on Windows 64bit. D:\Downloads\ffmpeg-20191126-59d264b-win64-static\bin>ffmpeg -framerate 25 -i hmv_akira_05a%03d. FFmpeg libraries can be built and used for Windows Apps development targeting Windows 10, Windows 8. Quick recommendation on improving the x265 encoding considering we are dealing with file size of range 1 MB to 20 MB. I am attempting to concatenate. js and an html5 video element. 0007-contrib-ffmpeg-fix-a-deadlock-in Find file Blame History Permalink. * * FFmpeg is distributed in the hope that it will be useful,. Maintainer: [email protected] This is in fact just a second implementation using the ffmpeg native format parsers instead of relying on the ones nvidia supplies, which are often not 100% compatible and lack features, like for example closed caption support. A little bash script that does the job for me, for your consideration #!/bin/bash echo 'HTTPPort 8090 HTTPBindAddress 0.